百度云资源论坛

 找回密码
 立即注册
搜索
热搜: 活动 交友 discuz

[CCTV]《动物世界》[赵忠祥版][108全集][TS高清版145G][阿里云]|纪录片|百度云下载| . ...

[复制链接]
发表于 2021-10-13 20:26:16 | 显示全部楼层 |阅读模式
《动物世界》栏目主编、节目主持人、赵忠祥评价说:
   的确,地球是一个大家园,因为有所有的动物,地球才不会失衡。人类发展很快,在我们建设美好家园的同时应该给动物们留下生存的空间。
General
ID                             : 1 (0x1)
Complete name                  : E:\阿里下载\动物世界:自然界中的大卫·科波菲尔-1.ts
Format                         : MPEG-TS
File size                      : 2.56 GiB
Duration                       : 26 min 6 s
Overall bit rate mode          : Variable
Overall bit rate               : 14.1 Mb/s

Video
ID                             : 256 (0x100)
Menu ID                        : 1 (0x1)
Format                         : AVC
Format/Info                    : Advanced Video Codec
Format profile                 : [email protected]
Format settings                : 1 Ref Frames
Format settings, CABAC         : No
Format settings, Reference fra : 1 frame
Codec ID                       : 27
Duration                       : 26 min 6 s
Bit rate                       : 13.0 Mb/s
Width                          : 1 920 pixels
Height                         : 1 080 pixels
Display aspect ratio           : 16:9
Frame rate mode                : Variable
Color space                    : YUV
Chroma subsampling             : 4:2:0
Bit depth                      : 8 bits
Scan type                      : Progressive
Stream size                    : 2.38 GiB (93%)

Audio
ID                             : 257 (0x101)
Menu ID                        : 1 (0x1)
Format                         : AC-3
Format/Info                    : Audio Coding 3
Commercial name                : Dolby Digital
Codec ID                       : 129
Duration                       : 26 min 6 s
Bit rate mode                  : Constant
Bit rate                       : 320 kb/s
Channel(s)                     : 2 channels
Channel layout                 : L R
Sampling rate                  : 44.1 kHz
Frame rate                     : 28.711 FPS (1536 SPF)
Compression mode               : Lossy
Delay relative to video        : -54 ms
Stream size                    : 59.8 MiB (2%)
Service kind                   : Complete Main


Menu
ID                             : 4096 (0x1000)
Menu ID                        : 1 (0x1)
Duration                       : 26 min 6 s
List                           : 256 (0x100) (AVC) / 257 (0x101) (AC-3)
Service name                   : 璁惧
Service provider               : FFmpeg
Service type                   : digital television












我用阿里云盘分享了「《动物世界》儿时回忆.108全集.赵忠祥版」,你可以不限速下载🚀

复制这段内容打开「阿里云盘」App 即可获取
链接:https://www.aliyundrive.com/s/pAKWRvPXEt6

[/hide]
回复

使用道具 举报

您需要登录后才可以回帖 登录 | 立即注册

本版积分规则

百度云资源论坛

GMT+8, 2021-10-22 17:31 , Processed in 0.083614 second(s), 18 queries .

Powered by Discuz! X3.4

© 2001-2017 Comsenz Inc.

快速回复 返回顶部 返回列表